SELAMAT MENYAKSIKAN, TERIMAKASIH TELAH BERKUNJUNG SOB ...
Love is Blind JoyBear (2020)

Nonton dan Download Film Love is Blind JoyBear (2020) Subtitle Indonesia

No votes

Film Semi Barat dengan Judul “Love is Blind (JoyBear Pictures)”, semoga membantu …

File Info

Format : MPEG-4
Format profile : Base Media
Codec ID : isom (isom/iso2/avc1/mp41)
File size : 891 MiB
Duration : 1 h 36 min
Overall bit rate mode : Variable
Overall bit rate : 1 297 kb/s
Writing application : Lavf58.29.100

Video
ID : 1
Format : AVC
Format/Info : Advanced Video Codec
Format profile : Main@L3.1
Format settings : CABAC / 1 Ref Frames
Format settings, CABAC : Yes
Format settings, Reference frames : 1 frame
Codec ID : avc1
Codec ID/Info : Advanced Video Coding
Duration : 1 h 36 min
Bit rate mode : Variable
Bit rate : 1 163 kb/s
Maximum bit rate : 3 513 kb/s
Width : 1 280 pixels
Height : 720 pixels
Display aspect ratio : 16:9
Frame rate mode : Constant
Frame rate : 24.000 FPS
Color space : YUV
Chroma subsampling : 4:2:0
Bit depth : 8 bits
Scan type : Progressive
Bits/(Pixel*Frame) : 0.053
Stream size : 799 MiB (90%)
Codec configuration box : avcC

Audio
ID : 2
Format : AAC LC
Format/Info : Advanced Audio Codec Low Complexity
Codec ID : mp4a-40-2
Duration : 1 h 36 min
Duration_LastFrame : -14 ms
Bit rate mode : Constant
Bit rate : 129 kb/s
Channel(s) : 2 channels
Channel layout : L R
Sampling rate : 44.1 kHz
Frame rate : 43.066 FPS (1024 SPF)
Compression mode : Lossy
Stream size : 88.5 MiB (10%)
Default : Yes
Alternate group : 1

Quality:
Year:
Country:

Download Streaming Film Love is Blind JoyBear (2020) Full Movie Kualitas HD Bluray Mp4 WEB-DL WEBrip HDTV Dvdrip Mkv 240p 360p 480p 720p 1080p Subtitle Indonesia hanya di Pojokmovie http://94.237.74.73/.

Trailer film Love is Blind JoyBear (2020)Subtitle Indonesia

Incoming search terms:

Filem semifilm ation semi subtitle indonesiaFilm semi baratFilm semi subtittle indonesiasemi barat
NONTON FILM BIOSKOP ONLINE  Nonton Film Bokep Indo Goyangan Janda Anak Satu TanteSeksi B
Incoming Keywords: New | Terbaru | Gratis | Bioskop | Full | Free Love is Blind JoyBear (2020),Cara Download Film Love is Blind JoyBear (2020) di Laptop,Download Film Love is Blind JoyBear (2020) Ganool,Website Download Film Love is Blind JoyBear (2020),Download Film Love is Blind JoyBear (2020) bioskop,Cara Download Movie Love is Blind JoyBear (2020),Link Download Movie Love is Blind JoyBear (2020),Situs Download Film Love is Blind JoyBear (2020),Pemeran Film Movie Drama Love is Blind JoyBear (2020),Google Drive Love is Blind JoyBear (2020),Love is Blind JoyBear (2020) tayang di aplikasi apa,Love is Blind JoyBear (2020) Netflix,Film Love is Blind JoyBear (2020) tayang dimana,Nonton Love is Blind JoyBear (2020) dimana,Nonton Film Love is Blind JoyBear (2020) - Love is Blind JoyBear (2020) Adalah ,Love is Blind JoyBear (2020) After Credits,Love is Blind JoyBear (2020) Blu Ray Release Date,Love is Blind JoyBear (2020) Cartoon PNG,Love is Blind JoyBear (2020)Cosplay,Love is Blind JoyBear (2020) Costume,Download Film Love is Blind JoyBear (2020) Sub Indo,Love is Blind JoyBear (2020) Duration,Foto Love is Blind JoyBear (2020),Love is Blind JoyBear (2020) Full Movie,Love is Blind JoyBear (2020) Full Movie Online Free,Gambar Love is Blind JoyBear (2020),Love is Blind JoyBear (2020) IMDB Rating,Love is Blind JoyBear (2020) Indoxxi,Download Love is Blind JoyBear (2020) Layarkaca21,Love is Blind JoyBear (2020) Lk21,Love is Blind JoyBear (2020) Movie Logo PNG,Love is Blind JoyBear (2020) Logo Vector,Watch Love is Blind JoyBear (2020) Full Movie Online Free,OST Love is Blind JoyBear (2020),Love is Blind JoyBear (2020) Parody,Pemain Love is Blind JoyBear (2020),Love is Blind JoyBear (2020) Post Credit,Love is Blind JoyBear (2020) Quotes,Love is Blind JoyBear (2020) Review Film,Love is Blind JoyBear (2020) Sinopsis,Love is Blind JoyBear (2020) Soundtrack,Love is Blind JoyBear (2020) Streaming,Love is Blind JoyBear (2020) Wallpaper,Watch Love is Blind JoyBear (2020) Full Movie

Download MOVIE Love is Blind JoyBear (2020) Subtitle Indonesia GRATIS

MOVIE URL: http://94.237.74.73/2021/01/23/love-is-blind-joybear-2020/